Tustoons
¡Bienvenido!

Registrate para disfrutar de todo el contenido de nuestro foro.





Mirmo Zibang! [15/52] [Lat/Jap] [DVDRip]

Ir abajo

Mirmo Zibang! [15/52] [Lat/Jap] [DVDRip] Empty Mirmo Zibang! [15/52] [Lat/Jap] [DVDRip]

Mensaje por YNT2018 el Jue Feb 14, 2019 7:36 pm

Mirmo Zibang! [15/52] [Lat/Jap] [DVDRip] KQkGaVn

Mirmo Zibang! [15/52] [Lat/Jap] [DVDRip] B2A

Mirmo Zibang! [15/52] [Lat/Jap] [DVDRip] 4B2

NOMBRE: Mirmo Zibang!
NOMBRE ORIGINAL: Wagamama☆Fairy Mirumo de Pon!
EPISODIOS: 172 (52 distribuidos en Latinoamérica)
GÉNERO: Comedia, Fantasía, Aventura, Romance, Drama, Shoujo
AÑO: 2002

Mirmo Zibang! [15/52] [Lat/Jap] [DVDRip] B2A

Mirmo Zibang! [15/52] [Lat/Jap] [DVDRip] BB2

RAW: DVDRip

AUDIO: Español Latino | Japonés

SUBTÍTULOS: Stardust Fansubs (Inglés)

SINCRONIZACIÓN: YNT2018

UPLOADER: YNT2018 (MEGA)

Spoiler:
General
Complete name : C:\Users\*\01 - El hada del amor. ¡Mirmo aparece!.mkv
Format : Matroska
Format version : Version 4 / Version 2
File size : 217 MiB
Duration : 24 min 35 s
Overall bit rate : 1 235 kb/s
Encoded date : UTC 2018-12-16 02:05:51
Writing application : mkvmerge v27.0.0 ('Metropolis') 64-bit
Writing library : libebml v1.3.6 + libmatroska v1.4.9

Video
ID : 1
Format : AVC
Format/Info : Advanced Video Codec
Format profile : Main@L4.1
Format settings : CABAC / 8 Ref Frames
Format settings, CABAC : Yes
Format settings, ReFrames : 8 frames
Codec ID : V_MPEG4/ISO/AVC
Duration : 24 min 34 s
Bit rate : 976 kb/s
Width : 640 pixels
Height : 480 pixels
Display aspect ratio : 4:3
Frame rate mode : Constant
Frame rate : 23.976 (24000/1001) FPS
Color space : YUV
Chroma subsampling : 4:2:0
Bit depth : 8 bits
Scan type : Progressive
Bits/(Pixel*Frame) : 0.133
Stream size : 172 MiB (79%)
Title : Japonés
Writing library : x264 core 130 r2273 b3065e6
Encoding settings : cabac=1 / ref=8 / deblock=1:-6:-6 / analyse=0x1:0x131 / me=esa / subme=10 / psy=1 / psy_rd=1.00:0.00 / mixed_ref=1 / me_range=32 / chroma_me=1 / trellis=2 / 8x8dct=0 / cqm=0 / deadzone=21,11 / fast_pskip=0 / chroma_qp_offset=-2 / threads=3 / lookahead_threads=1 / sliced_threads=0 / nr=0 / decimate=0 / interlaced=0 / bluray_compat=0 / constrained_intra=0 / bframes=5 / b_pyramid=2 / b_adapt=2 / b_bias=0 / direct=1 / weightb=1 / open_gop=0 / weightp=2 / keyint=240 / keyint_min=23 / scenecut=40 / intra_refresh=0 / rc_lookahead=40 / rc=crf / mbtree=1 / crf=18.0 / qcomp=0.60 / qpmin=0 / qpmax=69 / qpstep=4 / ip_ratio=1.40 / aq=1:1.00
Language : Japanese
Default : Yes
Forced : No

Audio #1
ID : 2
Format : MPEG Audio
Format version : Version 2
Format profile : Layer 3
Format settings : Joint stereo / Intensity Stereo + MS Stereo
Codec ID : A_MPEG/L3
Codec ID/Hint : MP3
Duration : 24 min 35 s
Bit rate mode : Constant
Bit rate : 64.0 kb/s
Channel(s) : 2 channels
Sampling rate : 22.05 kHz
Frame rate : 38.281 FPS (576 SPF)
Compression mode : Lossy
Stream size : 11.3 MiB (5%)
Title : Español
Language : Spanish
Default : Yes
Forced : No

Audio #2
ID : 3
Format : AAC
Format/Info : Advanced Audio Codec
Format profile : LC
Codec ID : A_AAC-2
Duration : 24 min 35 s
Bit rate : 192 kb/s
Channel(s) : 2 channels
Channel positions : Front: L R
Sampling rate : 48.0 kHz
Frame rate : 46.875 FPS (1024 SPF)
Compression mode : Lossy
Stream size : 33.8 MiB (16%)
Title : Japonés
Language : Japanese
Default : No
Forced : No


AGRADECIMIENTOS:

Spoiler:
RAW: kingtqi-Raws (01, 03, 07), Stardust Fansubs (02, 04, 08, 13, 14, 20, 21, 22, 26, 27, 28, 29)

AUDIO: Chris-Serket (01, 03, 07), _SeWa_ (02, 04, 08, 13, 14, 20, 21, 22, 26, 27, 28, 29)

SUBTÍTULOS: Stardust Fansubs (Inglés)

Mirmo Zibang! [15/52] [Lat/Jap] [DVDRip] B2A

Mirmo Zibang! [15/52] [Lat/Jap] [DVDRip] FAC

Kaede Minami tiene un profundo amor por un chico llamado Setsu y quiere que él corresponda a sus sentimientos, pero otra chica llamada Azumi quiere quedarse con el amor de Setsu usando trucos sucios. Ante los obstáculos de Kaede, aparecen los Muglox, que son parecidos a las hadas; los muglox tienen una gran fascinación por los dulces (de ahí su aspecto robusto) y cada uno tiene un instrumento musical mágico diferente para hacer su magia. (FILMAFFINITY)

Mirmo Zibang! [15/52] [Lat/Jap] [DVDRip] B2A

Mirmo Zibang! [15/52] [Lat/Jap] [DVDRip] 2BD

Spoiler:
Mirmo Zibang! [15/52] [Lat/Jap] [DVDRip] BtVvmF0
Mirmo Zibang! [15/52] [Lat/Jap] [DVDRip] 3Syr79n
Mirmo Zibang! [15/52] [Lat/Jap] [DVDRip] NT02taf
Mirmo Zibang! [15/52] [Lat/Jap] [DVDRip] DPtr4zr

Mirmo Zibang! [15/52] [Lat/Jap] [DVDRip] B2A

Los episodios encodeados por Stardust Fansubs incluyen un logo al principio del opening por unos segundos.

A partir del episodio 20, se introduce una serie de pequeños segmentos luego del ending y antes del preview del próximo episodio. Estos, al no ser adaptados en la versión internacional de la serie, se quedaron en japonés. Le puse unos subtítulos forzados en inglés.

El preview fue reemplazado por la canción del opening de la serie.

Mirmo Zibang! [15/52] [Lat/Jap] [DVDRip] B2A

Mirmo Zibang! [15/52] [Lat/Jap] [DVDRip] 20E



Contraseña:


Mirmo Zibang! [15/52] [Lat/Jap] [DVDRip] S7jZXM3

Mirmo Zibang! [15/52] [Lat/Jap] [DVDRip] 092
YNT2018
YNT2018
#TeamTustoons
#TeamTustoons

Mensajes : 23
Fecha de inscripción : 03/01/2018

Volver arriba Ir abajo

Mirmo Zibang! [15/52] [Lat/Jap] [DVDRip] Empty Re: Mirmo Zibang! [15/52] [Lat/Jap] [DVDRip]

Mensaje por Seth Fireburst el Lun Abr 29, 2019 8:11 am

Gracias! He estado buscando esta serie por mucho tiempo
Seth Fireburst
Seth Fireburst

Mensajes : 3
Fecha de inscripción : 29/04/2019
Edad : 24
Localización : Caracas

Volver arriba Ir abajo

Mirmo Zibang! [15/52] [Lat/Jap] [DVDRip] Empty Re: Mirmo Zibang! [15/52] [Lat/Jap] [DVDRip]

Mensaje por AKIRA KAITO el Lun Abr 29, 2019 11:27 am

gracias!

AKIRA KAITO

Mensajes : 64
Fecha de inscripción : 01/10/2017

Volver arriba Ir abajo

Mirmo Zibang! [15/52] [Lat/Jap] [DVDRip] Empty Re: Mirmo Zibang! [15/52] [Lat/Jap] [DVDRip]

Mensaje por monikua el Lun Abr 29, 2019 1:08 pm

gracias por la serie
En espero de los capitulos faltante

monikua

Mensajes : 106
Fecha de inscripción : 12/10/2017

Volver arriba Ir abajo

Mirmo Zibang! [15/52] [Lat/Jap] [DVDRip] Empty Re: Mirmo Zibang! [15/52] [Lat/Jap] [DVDRip]

Mensaje por Mirmo120 el Mar Jul 02, 2019 5:27 pm

hola gran Trabajo se agradece

Mirmo120

Mensajes : 1
Fecha de inscripción : 02/07/2019

Volver arriba Ir abajo

Mirmo Zibang! [15/52] [Lat/Jap] [DVDRip] Empty Re: Mirmo Zibang! [15/52] [Lat/Jap] [DVDRip]

Mensaje por superalexa000 el Miér Jul 03, 2019 5:58 pm

Te agradezco el aporte, veía a Mirmo por Cartoon Network. Mirmo Zibang! [15/52] [Lat/Jap] [DVDRip] 3890328190

superalexa000

Mensajes : 41
Fecha de inscripción : 12/09/2017

Volver arriba Ir abajo

Mirmo Zibang! [15/52] [Lat/Jap] [DVDRip] Empty Re: Mirmo Zibang! [15/52] [Lat/Jap] [DVDRip]

Mensaje por Contenido patrocinado


Contenido patrocinado


Volver arriba Ir abajo

Volver arriba


 
Permisos de este foro:
No puedes responder a temas en este foro.